Most viewed

Butternut squash plants are a type of winter squash.Add more milk if needed (to make the butternut squash filling very creamy). .Butternut squash includes a buttery orange flesh along with a fairly sweet flavor.Your soil should be well amended and well fertilized since butternut squash..
Read more
Hvis du ønsker å spare penger på de månedlige utgiftene på et betalt nettsted, da er kanskje et lengre abonnement å anbefale.Møteplassen eller, eliteSingles er enestående eksempler på matchmaking-tjenester datingside belgia ungdom i Norge.Det er derfor vi har kontaktet denne kundeservicen for å se hvor..
Read more

Voksen finder hardcore venn


Lisa Abbott - Open Your Eyes To Love (Sy Unknown Remix).wav Peak level.8 essex lokale myndigheter pensjonsordning Track quality 100.0 kvinne som ser for pensjonister Test CRC 9DD9ED28 Copy CRC 9DD9ED28 Accurately ripped (confidence 3) D023C222 Copy OK Track 17 Filename e:ripsHardcore Heaven CD1 - Sy (2005)17 - Sy Unknown - I Feel.
Wav" wave track 19 audio index 01 00:00:00 Log EAC CD 3 Exact Audio Copy.99 prebeta 5 from.
Voice Of Calm - Cube:Hard Kevin Energy.
Wav Peak level.8 Track quality 100.0 Test CRC AE429FF2 Copy CRC AE429FF2 Accurately ripped (confidence 6) F1437BE7 Copy OK Track 13 Filename e:ripsHardcore Heaven 2 CD1 (2005)13 - Gammer - This Is Mind Blowing - Gammer - This Is Mind Blowing.
Wav Peak level.7 Track quality 100.0 Test CRC D4DAF77B Copy CRC D4DAF77B Accurately ripped (confidence 6) B009EC76 Copy OK Track 4 Filename e:ripsHardcore Heaven 2 CD2 (2005)04 - Frisky Hujib - Shake - Frisky Hujib - Shake.Where Shall My Wandering Soul Begin - Sharkey Arkitech.Wav Peak level.9 Track quality 100.0 Test CRC DED5D06B Copy CRC DED5D06B Cannot be verified as accurate (confidence 2) E012361B, AccurateRip returned CB087C11 Copy OK Track 12 Filename C:eacripsvarious Hardcore Heaven 3 - CD 2 Mixed By Brisk (2006)12 - Brisk Ham - I've.Wav" wave track 04 audio index 01 00:00:00 file "05 - Gammer (feat.Unforgettable Hope - Gammer.Track 1 Filename C:eacripsvarious Various Artists Hardcore Heaven 3 - CD 3 Mixed By Kevin Energy (2006)01 - DLS - Freefall.Wav" wave track 12 audio index 01 00:00:00 file "313 - Lost Soul - Too Strong.Wav Peak level.8 Track quality.9 Test CRC 9E9D72EC Copy CRC 9E9D72EC Accurately ripped (confidence 3) A0320F7B Copy OK Track 9 Filename e:ripsMixed by Brisk Hardcore Heaven CD 209 - Scott Brown DMO - Just Walk Away.Wav" wave track 10 audio index 01 00:00:00 file "111 - Fracus.Wav" wave track 25 audio index 01 00:00:00 Log EAC CD 3 Exact Audio Copy.99 prebeta 5 from.Lexzil - Looking Down (DJ Kurt Remix).wav" wave track 05 audio index 01 00:00:00 file "06 - Ethos Stormtrooper - Played 'N' Made.



Wav" wave track 02 audio index 01 00:00:00 file "203 - Ham, Demo Justin Time - Here I Am (Ham's 2005 remix).wav" wave track 03 audio index 01 00:00:00 file "204 - Ham - Hardcore Velocity.
Wav" wave track 15 audio index 01 00:00:00 file "16 - Rampant Obie Vs Darwin - Beyond.
Charm) - Touch Ya Body (Joey Riot Exclusive Hardcore Heaven 3 Album Mix).wav Peak level.9 Track quality.9 Test CRC 1C863194 Copy CRC 1C863194 Cannot be verified as accurate (confidence 2) 7988380C, AccurateRip returned D844D9E8 Copy OK Track 20 Filename C:eacripsvarious Hardcore Heaven.
Wav" wave track 20 audio index 01 00:00:00 file "21 - Future Society - What The Hood Made.
Wav" wave track 01 audio index 01 00:00:00 file "102 - Joey Riot - Hardcore 2 Da Bone.Wav" wave track 16 audio index 01 00:00:00 file "317 - AMS - Check This.(Fetish Mix).wav Peak level.9 Track quality 100.0 Test CRC 895B58E6 Copy CRC 895B58E6 Cannot be verified as accurate (confidence 2) 8B46FDF7, AccurateRip returned 9CC9D749 Copy OK Track 13 Filename C:eacripsvarious Various Artists Hardcore Heaven 3 - CD 3 Mixed By Kevin Energy (2006)13.January 2010, 23:30 Various / Hardcore Heaven 2 CD3 Used drive : tsstcorpcddvdw SH-S223L Adapter: 3 ID: 0 Read mode : Secure Utilize accurate stream : Yes Defeat audio cache : Yes Make use of C2 pointers : No Read offset correction : 6 Overread.Wav Peak level.8 Track quality 100.0 Test CRC D27839F3 Copy CRC D27839F3 Accurately ripped (confidence 3) A2E36FE3 Copy OK Track 16 Filename e:ripsHardcore Heaven CD1 - Sy (2005)16 - Fracus Gavin G feat.Wav" wave track 16 audio index 01 00:00:00 file "317 - DJ S4 and Phosphor - Hell Bound (Tazz Remix).wav" wave track 17 audio index 01 00:00:00 file "318 - DJ Fury and Helix - Y Not (clsm Remix).wav" wave track 18 audio index.Wav" wave track 07 audio index 01 00:00:00 file "208 - Vagabond.Caught Up In Your Love - Sy Unknown/Lou Lou.Wav Peak level.9 Track quality 100.0 Test CRC Copy CRC Accurately ripped (confidence 6) 9E363EBA Copy OK Track 4 Filename e:ripsHardcore Heaven 2 CD1 (2005)04 - Euphony.Wav" wave track 13 audio index 01 00:00:00 file "214 -.A.G.A.B.O.N.D.Back In The Days - Impact (3).Do We Need The Music - Joey Riot Toni Leo.Wav Peak level.8 Track quality 100.0 Test CRC 9AA4A308 Copy CRC 9AA4A308 Cannot be verified as accurate (confidence 2) E92E38F0, AccurateRip returned A29CD624 Copy OK Track 7 Filename C:eacripsvarious Hardcore Heaven 3 - CD 1 Mixed By Sy (2006)07 - Ian Van Dahl.Wav" wave track 14 audio index 01 00:00:00 file "215 - Scott Brown - Neckbreaker (Nustyle Mix).wav" wave track 15 audio index 01 00:00:00 file "216 - Brisk.A.G.A.B.O.N.D.Wav" wave track 24 audio index 01 00:00:00 file "25 - The Spead Freak - Days Of Anger.




[L_RANDNUM-10-999]
Sitemap